Skip to main content

Umphreys McGee Live at The Pageant on 2013-02-09

Audio Preview

etree
Umphreys McGee Live at The Pageant on 2013-02-09




Set One:
01 Leave Me Las Vegas >
02 Get in the Van
03 The Floor
04 In the Kitchen * >
05 #5 >
06 In the Kitchen
07 Example 1
08 Muscle Shoals Nitty Gritty **
09 Layla

Set Two:
10 Der Bluten Kat >
11 Every Breath You Take/Peter Gunn >
12 Der Bluten Kat #
13 White Pickle >
14 Slacker
15 Wappy Sprayberry >
16 Tribute to the Spinal Shaft >
17 Puppet String $

Encore:
18 Phil's Farm >
19 Glory >
20 Phil's Farm

* - Soul Food II tease
** - w/ Mike Dillon on vibraphone & (Don't Fear) The Reaper tease
# - Loose Ends tease
$ - completes 02/08/2013


Collection UmphreysMcGee
Band/Artist Umphreys McGee
Venue The Pageant
Location St. Louis

Source AKG SE-5E-10, CE-1 (A/B) > Zoom H4n @ 24/48
Lineage Wavelab5 > r8brain 1.9 > TLC FLAC 6 > foobar2000 Live Show Tagger 0.7.1
Taped by James E
Transferred by BlingFree

Notes

Umphrey's McGee
Friday, February 08 2013
The Pageant
St. Louis, MO


Source: AKG SE-5E-10, CE-1 (A/B) > Zoom H4n @ 24/48
Location: DFOB, 10' Right of Center @ 8'
Lineage: Wavelab5 > r8brain 1.9 > TLC FLAC 6 > foobar2000 Live Show Tagger 0.7.1


Set One:
01 Leave Me Las Vegas >
02 Get in the Van
03 The Floor
04 In the Kitchen * >
05 #5 >
06 In the Kitchen
07 Example 1
08 Muscle Shoals Nitty Gritty **
09 Layla

Set Two:
10 Der Bluten Kat >
11 Every Breath You Take/Peter Gunn >
12 Der Bluten Kat #
13 White Pickle >
14 Slacker
15 Wappy Sprayberry >
16 Tribute to the Spinal Shaft >
17 Puppet String $

Encore:
18 Phil's Farm >
19 Glory >
20 Phil's Farm

* - Soul Food II tease
** - w/ Mike Dillon on vibraphone & (Don't Fear) The Reaper tease
# - Loose Ends tease
$ - completes 02/08/2013
-- Mike Dillon Band opened
-- Setlist courtesy of craythan schtation
-- Presented by James E / BlingFree
-- Thanks to Brad and Otterman for babysitting!

FFP:
um2013-02-09t01.flac:27aaf22f5881ad0f3f2f48610377391e
um2013-02-09t02.flac:aa68cd43878b6ad2f9b0e82f1594db0e
um2013-02-09t03.flac:fd46d7e2bca27bca5c32b740943220f1
um2013-02-09t04.flac:48f804277dc0f58087ad8790e30263d0
um2013-02-09t05.flac:9aade994b72d4059baa2963492ca7627
um2013-02-09t06.flac:e31a1afdc5f9169315e2fe61612688a7
um2013-02-09t07.flac:3c2703143e6eb7d816829f0d7cf3ad56
um2013-02-09t08.flac:80f37e2a57e2323b942f0f5ca8397809
um2013-02-09t09.flac:14513aa960913e9ac38d2747280ebf35
um2013-02-09t10.flac:538de574d2210ce309b621c74d8357e9
um2013-02-09t11.flac:f8c7e950e030cc6762e66067232422dd
um2013-02-09t12.flac:7d2b0b9fd31fb0275033635736e2cf2e
um2013-02-09t13.flac:544329aa5c70551ad0642370dea899a1
um2013-02-09t14.flac:a4781b51d25b5e5c64b9d3a4e06ed6ae
um2013-02-09t15.flac:10c9a0cbf908b29ecc5cd63d4e501b24
um2013-02-09t16.flac:4d4c77a3a9b1603a7ba528818959a5d7
um2013-02-09t17.flac:53720d2e7fd1f775573cf08804e75397
um2013-02-09t18.flac:44009cc537bbc8f29fbc5590f683943c
um2013-02-09t19.flac:317e5b00c60653c9e5cccd472a276f2a
um2013-02-09t20.flac:dd1f3d1c2299004ac8e1538075aa2919

SHNTOOL:
length expanded size cdr WAVE problems fmt ratio filename
3:32.54 37523852 B --- -- ---xx flac 0.5571 um2013-02-09t01.flac
6:18.71 66846236 B --- -- ---xx flac 0.5832 um2013-02-09t02.flac
6:53.05 72865004 B --- -- ---xx flac 0.5748 um2013-02-09t03.flac
11:21.27 120191948 B --- -- ---xx flac 0.5985 um2013-02-09t04.flac
6:53.08 72872060 B --- -- ---xx flac 0.5770 um2013-02-09t05.flac
2:33.05 27001004 B --- -- ---xx flac 0.5737 um2013-02-09t06.flac
7:45.68 82185980 B --- -- ---xx flac 0.5761 um2013-02-09t07.flac
10:51.42 114935228 B --- -- ---xx flac 0.5584 um2013-02-09t08.flac
7:05.01 74972396 B --- -- ---xx flac 0.6158 um2013-02-09t09.flac
15:44.06 166535756 B --- -- ---xx flac 0.5984 um2013-02-09t10.flac
4:55.18 52080380 B --- -- ---xx flac 0.5840 um2013-02-09t11.flac
3:26.35 36420764 B --- -- ---xx flac 0.6143 um2013-02-09t12.flac
4:42.57 49878908 B --- -- ---xx flac 0.5919 um2013-02-09t13.flac
11:14.26 118954796 B --- -- ---xx flac 0.6067 um2013-02-09t14.flac
15:02.52 159235148 B --- -- ---xx flac 0.6197 um2013-02-09t15.flac
12:36.70 133523084 B --- -- ---xx flac 0.5752 um2013-02-09t16.flac
6:43.32 71164508 B --- -- ---xx flac 0.5620 um2013-02-09t17.flac
3:24.53 36110300 B --- -- ---xx flac 0.6021 um2013-02-09t18.flac
4:09.07 43940108 B --- -- ---xx flac 0.5659 um2013-02-09t19.flac
3:37.50 38396444 B --- -- ---xx flac 0.6071 um2013-02-09t20.flac
148:52.12 1575633904 B 0.5893 (20 files)

comment
Reviews

Reviewer: camtootin - favoritefavoritefavoritefavoritefavorite - February 23, 2016
Subject: Alright, alright, alright
The good ole' days when Umphrey's would play the Pageant a few times a year... recordings from this venue always sound so clear, and this is no exception. This entire show is gold. Give it a listen!!
Reviewer: Louisianaphreak - favoritefavoritefavoritefavoritefavorite - September 11, 2013
Subject: muscle shoals nitty gritty
great quality thanks for the upload!
DOWNLOAD OPTIONS
Uploaded by
BlingFree
on 2/19/2013
Views
819
Favorites
2
Reviews
2
SIMILAR ITEMS (based on metadata)
Umphreys McGee
by Umphreys McGee
etree
eye 696
favorite 1
comment 1
favorite ( 1 reviews )
Source: AKG SE-5E-10, CE-1 (A/B) > Zoom H4n @ 24/48
Umphreys McGee
by Umphreys McGee
etree
eye 1,764
favorite 0
comment 3
favoritefavoritefavoritefavoritefavorite ( 3 reviews )
Source: Oktava MK-012 (fob/roc/din) > KindKables > Busman mod. PMD-660 (@16bit/48kHz)
Umphreys McGee
by Umphreys McGee
etree
eye 536
favorite 1
comment 0
Source: AKG SE-5E/CE-1 (NOS) > Edirol UA-5 > Marantz PMD620 @ 24/48 > SanDisk SDHC
Umphreys McGee
by Umphreys McGee
etree
eye 427
favorite 1
comment 0
Source: AKG SE-5E/CE-1 (NOS) > Edirol UA-5 > Marantz PMD620 @ 24/48 > SanDisk SDHC
Umphreys McGee
by Umphreys McGee
etree
eye 314
favorite 1
comment 0
Source: AKG SE-5E/CE-1 (X/Y 90) > Edirol UA-5 > Marantz PMD620 @ 24/48 > SanDisk SDHC
Umphreys McGee
by Umphreys McGee
etree
eye 1,528
favorite 1
comment 0
Source: AKG 391b (PAS) > Zoom H4n (24/48)
Umphreys McGee
by Umphreys McGee
etree
eye 954
favorite 1
comment 3
favoritefavoritefavoritefavoritefavorite ( 3 reviews )
Source: AKG 391b (A/B) > Zoom H4n (24/48)
Umphreys McGee
by Umphreys McGee
etree
eye 771
favorite 1
comment 1
favoritefavoritefavoritefavoritefavorite ( 1 reviews )
Source: Earthworks SR77 (NOS, FOB, DFS, 12' high) > V3 > MT 24/48
Umphreys McGee
by Umphreys McGee
etree
eye 239
favorite 1
comment 0
Source: AKG 391b (NOS) > Zoom H4n (24/48)
Umphreys McGee
by Umphreys McGee
etree
eye 1,046
favorite 2
comment 1
favoritefavorite ( 1 reviews )
Source: AKG 391b (PAS) > Zoom H4n (24/48)